#TITLE:littlehearts;
#SUBTITLE:;
#ARTIST:Unknown artist;
#TITLETRANSLIT:;
#SUBTITLETRANSLIT:;
#ARTISTTRANSLIT:;
#CREDIT:;
#BANNER:;
#BACKGROUND:;
#LYRICSPATH:;
#CDTITLE:;
#MUSIC:littlehearts.mp3;
#OFFSET:-0.040;
#SAMPLESTART:100.040;
#SAMPLELENGTH:12.000;
#SELECTABLE:YES;
#BPMS:0.000=200.001;
#STOPS:;
#BGCHANGES:;
// cache tags:
#FIRSTBEAT:4.500;
#LASTBEAT:427.500;
#SONGFILENAME:Songs/Music V.I.P ^_^/littlehearts/littlehearts.sm;
#HASMUSIC:1;
#HASBANNER:0;
#MUSICLENGTH:133.360;
// end cache tags

//---------------dance-single - ----------------
#NOTES:
     dance-single:
     :
     Hard:
     14:
     1.000,1.000,1.000,0.397,1.000,1483.000,628.000,53.000,0.000,65.000:
0000
0000
0000
0000
,
0000
0001
0010
0001
0100
1000
0000
0100
,
0010
1000
0100
0001
0000
1000
0100
0001
,
0000
1000
0100
1000
0010
0001
0000
0100
,
0010
0001
0010
0100
0000
0010
0100
1000
,
0100
0010
0101
0010
1100
0010
0101
0010
1001
0100
1010
0100
0010
0001
1100
0010
,
0101
1000
0110
0001
1010
0100
1001
0100
0010
0001
1100
0001
0110
1000
0011
0100
,
1000
0100
1001
0100
1010
0100
0011
0100
1010
0100
1001
0100
0010
0001
0110
1000
,
0011
0100
1010
0001
0110
1000
0102
0010
0100
1000
0100
0010
0100
1000
0103
0010
,
0001
0010
0100
1000
0011
0100
0010
0100
1001
0100
0010
0001
0110
0001
0010
0100
,
1010
0001
0010
0001
0110
1000
0110
0001
0010
0100
1010
0100
0011
0100
1000
0100
,
0010
0001
0010
0100
1001
0100
0010
0001
0110
0001
0010
0100
1010
0100
0010
0100
,
1001
0100
0010
0001
1010
0100
0011
0100
1000
0100
0011
1000
0110
0001
1100
0010
,
0001
0010
0100
0010
0101
0010
1000
0100
1010
0100
0010
0001
0110
0001
1000
0010
,
0101
0010
1000
0001
0110
1000
0011
0100
0010
0001
1010
0001
0110
1000
0100
0010
,
0001
0010
0100
0010
1001
0100
0010
0001
1010
0001
0010
0100
1010
0100
0010
0001
,
1010
0000
0001
0000
0010
0000
0100
0000
0011
0000
0100
0000
1010
0000
0001
0000
0010
0000
0100
0000
1000
0000
0100
0000
1000
0100
0010
0001
1000
0100
0010
0001
,
1010
0001
1010
0100
1010
0001
1010
0100
0011
0100
1010
0001
0010
0001
1100
0010
,
0101
0010
1100
0001
0110
1000
0011
0100
0010
0001
1100
0001
0010
0100
1010
0100
,
0011
0100
1010
0001
0110
1000
0101
1000
0100
0010
1001
0010
0001
0010
1100
0001
,
1010
0001
0110
1000
0101
1000
0011
0100
1000
0100
0011
1000
0110
0001
1100
0001
,
0110
1000
0011
0100
0011
1000
0011
0100
1010
0100
0011
0100
0010
0100
1010
0100
,
0011
1000
0110
0001
1100
0001
0110
0001
0010
0100
1010
0001
0010
0100
1010
0001
,
0110
0001
1010
0100
0011
1000
0110
1000
0100
0010
0101
1000
0110
0001
1010
0001
,
1100
0001
0110
1000
0011
0100
1010
0100
0010
0001
1100
0001
0110
1000
0011
0000
,
1001
0100
1010
0100
1001
0100
1010
0001
1100
0001
1010
0100
0010
0001
1010
0100
,
0011
1000
0110
0001
1100
0001
0110
1000
0100
0010
1100
0010
0100
1000
0011
0100
,
1010
0001
0110
1000
0101
1000
0110
0001
0010
0100
1010
0001
0010
0100
1001
0010
,
1100
0001
0110
1000
0101
1000
0110
1000
0100
0010
1100
0001
0110
1000
0011
0100
,
1001
0100
0011
1000
0011
0100
0011
1000
0110
1000
0011
0100
0010
0001
1010
0100
,
0011
1000
0110
0001
1100
0010
1001
0010
0100
1000
0110
0001
0010
0001
1100
0001
,
1010
0001
0110
1000
0101
1000
0011
1000
0100
0010
0101
1000
0110
0001
1010
0001
,
1100
0001
0110
1000
0011
0100
1010
0001
1000
0001
1000
0001
1010
0001
1000
0010
,
2001
0100
0010
3201
1000
0321
0100
1032
,
0100
0213
1302
0203
2310
0001
0010
0100
,
3012
0100
1203
0321
0100
1032
0100
0213
,
1000
0312
1023
0231
1000
0321
1032
0123
,
1030
0102
2013
3210
0001
0321
1000
0132
,
1000
0123
1230
0321
1000
0001
1230
0001
,
2310
0001
3210
1302
0010
1203
1320
1032
,
2103
0010
3201
1320
0100
1032
0123
0231
,
2310
0000
0000
0001
0000
0000
0100
0000
0000
0001
0000
0000
0010
0000
0000
0001
0000
0000
0100
0000
0000
0001
0000
0000
0010
0000
0000
0001
0000
0000
0100
0000
0000
0001
0000
0000
3100
0000
0001
0000
0100
0000
0001
0000
0100
0000
0001
0000
,
0000
1100
0110
0011
0110
1100
0110
0011
,
1111
0110
0011
1100
0110
0011
1100
0110
,
1111
1100
0110
0011
1111
0011
0110
1100
,
1111
1100
1111
0110
1111
0011
1111
1100
,
0010
0100
0010
0100
0010
0000
0010
0100
0010
0100
0010
0000
0001
0010
0001
0000
,
0010
0100
0010
0100
0010
0000
0010
0100
0010
0100
0010
0000
0100
1000
0100
0000
,
1000
0100
1000
0100
1000
0000
1000
0100
1000
0100
1000
0000
0001
0010
0001
0000
,
0010
0100
0010
0100
0010
0000
0010
0100
0010
0100
0010
0000
0010
0100
0010
0000
,
1010
0101
1010
0101
1010
0000
0101
1010
0101
1010
0101
0000
1010
0101
1010
0000
,
1001
0110
1001
0110
1001
0000
0110
1001
0110
1001
0110
0000
1001
0110
1001
0000
,
1100
0011
1100
0011
1100
0000
0011
1100
0011
1100
0011
0000
1100
0011
1100
0000
,
0101
1010
0101
1010
0101
0000
1010
0101
1010
0101
1010
0000
0101
1010
0101
0000
,
1010
0101
1010
0101
1010
0100
0011
1100
0011
1100
0011
0100
1001
0110
1001
0010
,
0101
1010
0101
1010
0101
0010
1100
0011
1100
0011
1100
0010
1001
0110
1001
0100
,
0011
1100
0011
1100
0011
1000
0101
1010
0101
1010
0101
1000
0110
1001
0110
0001
,
1010
0101
1010
0101
1010
0100
0011
1100
0011
1100
0011
1000
0110
1001
0110
0001
,
1010
0101
1010
0101
1010
0001
1100
0011
1100
0011
1100
0001
1010
0101
1010
0100
,
0011
1100
0011
1100
0011
0100
1010
0101
1010
0101
1010
0100
1001
0110
1001
0100
,
0011
1100
0011
1100
0011
1000
0101
1010
0101
1010
0101
0010
1001
0110
1001
0100
,
1001
0110
1001
0110
1001
0100
1010
0101
1010
0101
1010
0100
0011
1100
0011
0100
,
2002
0000
0000
0000
0010
0000
0000
0000
0000
0000
0000
0000
0010
0000
0000
0000
0000
0000
0000
0000
0010
0000
0000
0000
3013
0100
0010
0100
0010
0100
0010
0100
,
1010
0001
0110
1000
0011
1000
0110
0001
0010
0100
0011
1000
0110
0001
1100
0010
,
1100
0001
0110
1000
0011
1000
0110
0001
0010
0100
0011
1000
0110
0001
1100
0001
,
0110
0001
0010
0100
0011
0100
0010
0001
0110
1000
0100
1000
0110
0001
1100
0001
,
0010
0001
0110
1000
0110
1000
0011
1000
0110
0001
1100
0001
0110
0001
1100
0001
,
0110
1000
0011
1000
0110
1000
0011
1000
0110
1000
0011
1000
0100
0010
1100
0001
,
0110
1000
0011
0100
1010
0001
0220
1000
0001
1330
0101
1010
0101
1010
0101
1010
,
0101
0010
1100
0010
1100
0010
0101
0010
1100
0001
0110
0001
1100
0001
1010
0001
,
1100
0000
0010
0000
0101
0000
0010
0000
0101
0000
0010
0000
1100
0000
0010
0000
0001
0010
0100
1000
0001
0010
0100
1000
0001
0010
0100
1000
0001
0010
0100
1000
,
0001
0010
0100
1000
0101
0010
0100
1000
0110
0001
0010
0100
1010
0001
0010
0100
,
0011
1000
0100
0010
1100
0001
0110
0001
0010
0001
0110
1000
0011
0100
1000
0010
,
0001
1000
0010
0100
0011
0100
0010
0001
0110
1000
0100
0010
1100
0001
0010
0100
,
1010
0001
0010
0100
1001
0010
0101
0010
0100
1000
0011
1000
0110
0001
1100
0010
,
0001
0010
0100
1000
0101
0010
0100
1000
0110
1000
0100
0010
1100
0001
0010
0100
,
0011
1000
0100
0010
1100
0001
0110
0001
0010
0001
0110
1000
0011
1000
0100
0001
,
0010
1000
0100
0001
1010
0100
0010
0001
0110
0001
1000
0001
1100
0001
0010
0001
,
0110
0001
1100
0010
0101
1000
0110
0001
1000
0001
1000
0001
1000
0001
1000
0001
,
0010
0000
0000
0001
0000
0000
0010
0000
0000
0001
0000
0000
1000
0000
0100
0000
1000
0000
0100
0000
1000
0000
0100
0000
0011
0000
0000
1000
0000
0000
0011
0000
0000
0100
0000
0000
0011
0000
0000
1000
0000
0000
0011
0000
0000
1000
0000
0000
,
0110
1000
0011
0100
1001
0100
1010
0100
0011
1000
0110
0001
1100
0001
0110
1000
,
0100
0010
1100
0010
0001
0010
1100
0001
0110
0001
1010
0100
0011
1000
0110
1000
,
0100
0010
1100
0010
0001
0010
1100
0001
1010
0001
0110
1000
0101
1000
0011
0100
,
1000
0100
0011
1000
0110
0001
1100
0001
1010
0100
0011
0100
0011
1000
0011
1000
,
0110
1000
0011
0100
0010
0001
1100
0010
0101
1000
0110
0001
1010
0001
0110
1000
,
0100
0010
1100
0010
0001
0010
1100
0001
1010
0001
0110
1000
0101
1000
0011
1000
,
0100
0010
1001
0010
0101
1000
0011
1000
0110
0001
1010
0100
1001
0010
1001
0010
,
0001
0010
1100
0001
1010
0100
1001
0010
0101
1000
0101
0010
0101
1000
0101
1000
,
0011
1000
0101
0010
0001
1000
0110
1000
0011
1000
0110
0001
1100
0001
0110
1000
,
0100
0010
1100
0001
0010
0001
1100
0001
0110
1000
0011
0100
1010
0001
0110
0001
,
0010
0100
0011
0100
0010
0001
1100
0001
0110
0001
1010
0001
1100
0010
1001
0010
,
0100
1000
0011
1000
0110
0001
1100
0001
0110
1000
0011
0100
0011
1000
0011
1000
,
0110
1000
0011
0100
0010
0001
1010
0100
0011
1000
0110
0001
1100
0001
0110
1000
,
0100
0010
1100
0010
0001
0010
1100
0001
1010
0001
0110
1000
0101
1000
0011
0100
,
1000
0100
0011
1000
0110
0001
1100
0001
1010
0001
0110
1000
0101
0010
1001
0100
,
0010
0100
1000
0100
1111
0100
0010
0001
0010
0001
0110
0001
1100
0001
0110
1000
,
0011
1000
0100
0010
0101
1000
0110
0001
1010
0001
1100
0001
0110
1000
0011
0100
,
1010
0100
1001
0010
1100
0001
1010
0100
0001
1000
0011
1000
0110
0001
1100
0001
,
0110
1000
0011
1000
0110
0001
1100
0001
0110
1000
0011
1000
0110
0001
1100
0001
,
0110
1000
0011
1000
0110
0001
1010
0100
0011
0100
0011
0100
0011
0100
0011
0100
,
0011
0100
0022
1000
0100
1000
0100
1000
0100
1000
0133
1000
0011
0100
0011
1000
,
0011
0100
2020
0001
3130
0001
0110
1000
0101
0010
0101
1000
0101
1000
0220
0001
,
1330
0010
1100
0001
0110
1000
0011
0100
1001
0010
1100
0010
0101
1000
0200
0000
,
0000
0000
0000
0000
,
0000
0000
0000
0000
,
0000
0000
0000
0000
,
0000
0000
0000
0000
0000
0000
0000
0300
;

//---------------dance-single - Copied from----------------
#NOTES:
     dance-single:
     Copied from:
     Challenge:
     14:
     1.000,1.000,1.000,0.397,1.000,1489.000,629.000,53.000,0.000,89.000:
0000
0000
0000
0000
,
0000
0001
0010
0001
0100
1000
0000
0100
,
0010
1000
0100
0001
0000
1000
0100
0001
,
0000
1000
0100
1000
0010
0001
0000
0100
,
0010
0001
0010
0100
0000
0010
0100
1000
,
0100
0010
0101
0010
1100
0010
0101
0010
1001
0100
1010
0100
0010
0001
1100
0010
,
0101
1000
0110
0001
1010
0100
1001
0100
0010
0001
1100
0001
0110
1000
0011
0100
,
1000
0100
1001
0100
1010
0100
0011
0100
1010
0100
1001
0100
0010
0001
0110
1000
,
0011
0100
1010
0001
0110
1000
0102
0010
0100
1000
0100
0010
0100
1000
0103
0010
,
0001
0010
0100
1000
0011
0100
0010
0100
1001
0100
0010
0001
0110
0001
0010
0100
,
1010
0001
0010
0001
0110
1000
0110
0001
0010
0100
1010
0100
0011
0100
1000
0100
,
0010
0001
0010
0100
1001
0100
0010
0001
0110
0001
0010
0100
1010
0100
0010
0100
,
1001
0100
0010
0001
1010
0100
0011
0100
1000
0100
0011
1000
0110
0001
1100
0010
,
0001
0010
0100
0010
0101
0010
1000
0100
1010
0100
0010
0001
0110
0001
1000
0010
,
0101
0010
1000
0001
0110
1000
0011
0100
0010
0001
1010
0001
0110
1000
0100
0010
,
0001
0010
0100
0010
1001
0100
0010
0001
1010
0001
0010
0100
1010
0100
0010
0001
,
1010
0000
0001
0000
0010
0000
0100
0000
0011
0000
0100
0000
1010
0000
0001
0000
0010
0000
0100
0000
1000
0000
0100
0000
1000
0100
0010
0001
0001
0010
0100
1000
,
1010
0001
1010
0100
1010
0001
1010
0100
0011
0100
1010
0001
0010
0001
1100
0010
,
0101
0010
1100
0001
0110
1000
0011
0100
0010
0001
1100
0001
0010
0100
1010
0100
,
0011
0100
1010
0001
0110
1000
0101
1000
0100
0010
1001
0010
0001
0010
1100
0001
,
1010
0001
0110
1000
0101
1000
0011
0100
1000
0100
0011
1000
0110
0001
1100
0001
,
0110
1000
0011
0100
0011
1000
0011
0100
1010
0100
0011
0100
0010
0100
1010
0100
,
0011
1000
0110
0001
1100
0001
0110
0001
0010
0100
1010
0001
0010
0100
1010
0001
,
0110
0001
1010
0100
0011
1000
0110
1000
0100
0010
0101
1000
0110
0001
1010
0001
,
1100
0001
0110
1000
0011
0100
1010
0100
0010
0001
1100
0001
0110
1000
0011
0000
,
1001
0100
1010
0100
1001
0100
1010
0001
1100
0001
1010
0100
0010
0001
1010
0100
,
0011
1000
0110
0001
1100
0001
0110
1000
0100
0010
1100
0010
0100
1000
0011
0100
,
1010
0001
0110
1000
0101
1000
0110
0001
0010
0100
1010
0001
0010
0100
1001
0010
,
1100
0001
0110
1000
0101
1000
0110
1000
0100
0010
1100
0001
0110
1000
0011
0100
,
1001
0100
0011
1000
0011
0100
0011
1000
0110
1000
0011
0100
0010
0001
1010
0100
,
0011
1000
0110
0001
1100
0010
1001
0010
0100
1000
0110
0001
0010
0001
1100
0001
,
1010
0001
0110
1000
0101
1000
0011
1000
0100
0010
0101
1000
0110
0001
1010
0001
,
1100
0001
0110
1000
0011
0100
1010
0001
1000
0001
1000
0001
1010
0001
1000
0010
,
2001
0100
0010
3201
1000
0321
0100
1032
,
0100
0213
1302
0203
2310
0001
0010
0100
,
3012
0100
1203
0321
0100
1032
0100
0213
,
1000
0312
1023
0231
1000
0321
1032
0123
,
1030
0102
2013
3210
0001
0321
1000
0132
,
1000
0123
1230
0321
1000
0001
1230
0001
,
2310
0001
3210
1302
0010
1203
1320
1032
,
2103
0010
3201
1320
0100
1032
0123
0231
,
2310
0000
0000
0001
0000
0000
0100
0000
0000
0001
0000
0000
0010
0000
0000
0001
0000
0000
0100
0000
0000
0001
0000
0000
0010
0000
0000
0001
0000
0000
0100
0000
0000
0001
0000
0000
3100
0000
0001
0000
0100
0000
0001
0000
0100
0000
0001
0000
,
0000
1110
1101
1011
0111
1011
1101
1111
,
1111
0111
1011
1101
1110
1101
1011
0111
,
1111
1011
1101
1011
1111
1101
1011
1101
,
1111
1110
1111
1101
1111
1011
1111
0111
,
0010
0010
0010
0010
0010
0000
0010
0010
0010
0010
0010
0000
0001
0001
0001
0000
,
0010
0010
0010
0010
0010
0000
0010
0010
0010
0010
0010
0000
0100
0100
0100
0000
,
1000
1000
1000
1000
1000
0000
1000
1000
1000
1000
1000
0000
0001
0001
0001
0000
,
0010
0010
0010
0010
0010
0000
0010
0010
0010
0010
0010
0000
0010
0010
0010
0000
,
1010
1010
1010
1010
1010
0000
0101
0101
0101
0101
0101
0000
1010
1010
1010
0000
,
1001
1001
1001
1001
1001
0000
0110
0110
0110
0110
0110
0000
1001
1001
1001
0000
,
1100
1100
1100
1100
1100
0000
0011
0011
0011
0011
0011
0000
1100
1100
1100
0000
,
0101
0101
0101
0101
0101
0000
1010
1010
1010
1010
1010
0000
0101
0101
0101
0000
,
1010
1010
1010
1010
1010
0100
0011
0011
0011
0011
0011
0100
1001
1001
1001
0010
,
0101
0101
0101
0101
0101
0010
1100
1100
1100
1100
1100
0010
1001
1001
1001
0100
,
0011
0011
0011
0011
0011
1000
0101
0101
0101
0101
0101
1000
0110
0110
0110
0001
,
1010
1010
1010
1010
1010
0100
0011
0011
0011
0011
0011
1000
0110
0110
0110
0001
,
1010
1010
1010
1010
1010
0001
1100
1100
1100
1100
1100
0001
1010
1010
1010
0100
,
0011
0011
0011
0011
0011
0100
1010
1010
1010
1010
1010
0100
1001
1001
1001
0100
,
0011
0011
0011
0011
0011
1000
0101
0101
0101
0101
0101
0010
1001
1001
1001
0100
,
1001
1001
1001
1001
1001
0100
1010
1010
1010
1010
1010
0100
0011
0011
0011
0100
,
2002
0000
0000
0000
0010
0000
0000
0000
0000
0000
0000
0000
0010
0000
0000
0000
0000
0000
0000
0000
0010
0000
0000
0000
3013
0010
0010
0010
0010
0010
0010
0010
,
1010
0001
0110
1000
0011
1000
0110
0001
0010
0100
0011
1000
0110
0001
1100
0010
,
1100
0001
0110
1000
0011
1000
0110
0001
0010
0100
0011
1000
0110
0001
1100
0001
,
0110
0001
0010
0100
0011
0100
0010
0001
0110
1000
0100
1000
0110
0001
1100
0001
,
0010
0001
0110
1000
0110
1000
0011
1000
0110
0001
1100
0001
0110
0001
1100
0001
,
0110
1000
0011
1000
0110
1000
0011
1000
0110
1000
0011
1000
0100
0010
1100
0001
,
0110
1000
0011
0100
1010
0001
0220
1000
0001
1330
0101
1010
0101
1010
0101
1010
,
0101
0010
1100
0010
1100
0010
0101
0010
1100
0001
0110
0001
1100
0001
1010
0001
,
1100
0000
0010
0000
0101
0000
0010
0000
0101
0000
0010
0000
1100
0000
0010
0000
0001
0010
0100
1000
1000
0100
0010
0001
0001
0010
0100
1000
1000
0100
0010
0001
,
0001
0010
0100
1000
0101
0010
0100
1000
0110
0001
0010
0100
1010
0001
0010
0100
,
0011
1000
0100
0010
1100
0001
0110
0001
0010
0001
0110
1000
0011
0100
1000
0010
,
0001
1000
0010
0100
0011
0100
0010
0001
0110
1000
0100
0010
1100
0001
0010
0100
,
1010
0001
0010
0100
1001
0010
0101
0010
0100
1000
0011
1000
0110
0001
1100
0010
,
0001
0010
0100
1000
0101
0010
0100
1000
0110
1000
0100
0010
1100
0001
0010
0100
,
0011
1000
0100
0010
1100
0001
0110
0001
0010
0001
0110
1000
0011
1000
0100
0001
,
0010
1000
0100
0001
1010
0100
0010
0001
0110
0001
1000
0001
1100
0001
0010
0001
,
0110
0001
1100
0010
0101
1000
0110
0001
1000
0001
1000
0001
1000
0001
1000
0001
,
0010
0000
0000
0001
0000
0000
0010
0000
0000
0001
0000
0000
1000
0000
0100
0000
1000
0000
0100
0000
1000
0000
0100
0000
0011
0000
0000
1000
0000
0000
0011
0000
0000
0100
0000
0000
0011
0000
0000
1000
0000
0000
0011
0000
0000
1000
0000
0000
,
0110
1000
0011
0100
1001
0100
1010
0100
0011
1000
0110
0001
1100
0001
0110
1000
,
0100
0010
1100
0010
0001
0010
1100
0001
0110
0001
1010
0100
0011
1000
0110
1000
,
0100
0010
1100
0010
0001
0010
1100
0001
1010
0001
0110
1000
0101
1000
0011
0100
,
1000
0100
0011
1000
0110
0001
1100
0001
1010
0100
0011
0100
0011
1000
0011
1000
,
0110
1000
0011
0100
0010
0001
1100
0010
0101
1000
0110
0001
1010
0001
0110
1000
,
0100
0010
1100
0010
0001
0010
1100
0001
1010
0001
0110
1000
0101
1000
0011
1000
,
0100
0010
1001
0010
0101
1000
0011
1000
0110
0001
1010
0100
1001
0010
1001
0010
,
0001
0010
1100
0001
1010
0100
1001
0010
0101
1000
0101
0010
0101
1000
0101
1000
,
0011
1000
0101
0010
0001
1000
0110
1000
0011
1000
0110
0001
1100
0001
0110
1000
,
0100
0010
1100
0001
0010
0001
1100
0001
0110
1000
0011
0100
1010
0001
0110
0001
,
0010
0100
0011
0100
0010
0001
1100
0001
0110
0001
1010
0001
1100
0010
1001
0010
,
0100
1000
0011
1000
0110
0001
1100
0001
0110
1000
0011
0100
0011
1000
0011
1000
,
0110
1000
0011
0100
0010
0001
1010
0100
0011
1000
0110
0001
1100
0001
0110
1000
,
0100
0010
1100
0010
0001
0010
1100
0001
1010
0001
0110
1000
0101
1000
0011
0100
,
1000
0100
0011
1000
0110
0001
1100
0001
1010
0001
0110
1000
0101
0010
1001
0100
,
0010
0100
1000
0100
1111
0100
0010
0001
0010
0001
0110
0001
1100
0001
0110
1000
,
0011
1000
0100
0010
0101
1000
0110
0001
1010
0001
1100
0001
0110
1000
0011
0100
,
1010
0100
1001
0010
1100
0001
1010
0100
0001
1000
0011
1000
0110
0001
1100
0001
,
0110
1000
0011
1000
0110
0001
1100
0001
0110
1000
0011
1000
0110
0001
1100
0001
,
0110
1000
0011
1000
0110
0001
1010
0100
0011
0100
0011
0100
0011
0100
0011
0100
,
0011
0100
0022
1000
0100
1000
0100
1000
0100
1000
0133
1000
0011
0100
0011
1000
,
0011
0100
2020
0001
3130
0001
0110
1000
0101
0010
0101
1000
0101
1000
0220
0001
,
1330
0010
1100
0001
0110
1000
0011
0100
1001
0010
1100
0010
0101
0010
1200
0010
,
0001
0010
1000
0010
0301
0000
0000
0000
0000
0000
0000
0000
0000
0000
0000
0000
;

//---------------dance-single - Copied from Copied f----------------
#NOTES:
     dance-single:
     Copied from Copied f:
     Edit:
     14:
     1.000,1.000,1.000,0.390,1.000,1540.000,661.000,52.000,0.000,221.000:
0000
0000
0000
0000
,
0000
0001
0010
0001
0100
1000
0000
0100
,
0010
1000
0100
0001
0000
1000
0100
0001
,
0000
1000
0100
1000
0010
0001
0000
0100
,
0010
0001
0010
0100
0000
0010
0100
1000
,
0100
0010
0101
0010
1001
0010
1100
0010
1001
0100
1010
0100
0010
0001
1100
0010
,
0101
1000
0110
0001
1010
0100
1001
0100
0010
0001
1100
0001
0110
1000
0011
0100
,
1000
0100
1001
0100
1010
0100
0011
0100
1010
0100
1001
0100
0010
0001
0110
1000
,
0011
0100
1010
0001
0110
0100
0102
0100
0100
0100
0100
0100
0100
0100
0103
0100
,
0100
0100
0100
1100
0011
0010
0010
0010
1001
1000
1000
1000
0110
0010
0010
0010
,
1010
1000
1000
1000
0110
0100
0110
0100
0010
0010
1010
0010
0011
0001
0001
0001
,
0010
0010
0010
0010
1001
1000
1000
1000
0110
0100
0100
0100
0110
0010
0010
0010
,
0011
0001
0001
0001
1001
1000
1100
1000
1000
1000
1010
1000
1010
1000
1100
1000
,
1000
1000
1000
1000
1001
1000
1000
1000
1010
1000
1000
1000
0110
0001
1000
0010
,
0101
0010
1000
0001
0110
1000
0011
0100
0010
0001
1010
0001
0110
1000
0100
0010
,
0001
0010
0100
0010
1001
0100
0010
0001
1010
0001
0010
0100
1010
0100
0010
0001
,
1010
0000
0000
0000
0001
0000
0000
0000
0010
0000
0000
0000
0100
0000
0000
0000
0011
0000
0000
0000
0100
0000
0000
0000
1010
0000
0000
0000
0001
0000
0000
0000
0010
0000
0000
0000
0100
0000
0000
0000
1000
0000
0000
0000
0100
0000
0000
0000
0100
0010
0100
0010
0100
0010
0100
0010
0100
0010
0100
0010
0100
0010
0100
0010
,
1001
0001
1010
0100
1010
0001
1010
0100
0011
0100
1010
0001
0010
0001
1100
0010
,
0101
0010
1100
0001
0110
1000
0011
0100
0010
0001
1100
0001
0010
0100
1010
0100
,
0011
0100
1010
0001
0110
1000
0101
1000
0100
0010
1001
0010
0001
0010
1100
0001
,
1010
0001
0110
1000
0101
1000
0011
0100
1000
0100
0011
1000
0110
0001
1100
0001
,
0110
0100
1011
0100
1011
0100
1011
0100
1010
0100
1011
0100
0010
0100
1010
0100
,
0011
1000
0110
0001
1100
0001
0110
0001
0010
0100
1010
0001
0010
0100
1010
0001
,
0110
0001
1010
0100
0011
1000
0110
1000
0100
0010
0101
1000
0110
0001
1010
0001
,
1100
0001
0110
1000
0011
0100
1010
0100
0010
0001
1100
0001
0110
1000
0011
0000
,
1001
0100
1010
0100
1001
0100
1010
0001
1100
0001
1010
0100
0010
0001
1010
0100
,
0011
1000
0110
0001
1100
0001
0110
1000
0100
0010
1100
0010
0100
1000
0011
0100
,
1010
0001
0110
1000
0101
1000
0110
0001
0010
0100
1010
0001
0010
0100
1001
0010
,
1100
0001
0110
1000
0101
1000
0110
1000
0100
0010
1100
0001
0110
1000
0011
0100
,
1001
0100
0011
1000
0011
0100
0011
1000
0110
1000
0011
0100
0010
0001
1010
0100
,
0011
1000
0110
0001
1100
0010
1001
0010
0100
1000
0110
0001
0010
0001
1100
0001
,
1010
0001
0110
1000
0101
1000
0011
1000
0100
0010
0101
1000
0110
0001
1010
0001
,
1100
0001
0110
1000
0011
0100
1010
0001
1000
0001
1000
0001
1010
0001
1000
0010
,
2001
0100
0010
3201
1000
0321
0100
1032
,
0100
0213
1302
0203
2310
0001
0010
0100
,
3012
0100
1203
0321
0100
1032
0100
0213
,
1000
0312
1023
0231
1000
0321
1032
0123
,
1030
0102
2013
3210
0001
0321
1000
0132
,
1000
0123
1230
0321
1000
0001
1230
0001
,
2310
0001
3210
1302
0010
1203
1320
1032
,
2103
0010
3201
1320
0100
1032
0123
0231
,
2310
0000
0000
0001
0000
0000
0100
0000
0000
0001
0000
0000
0010
0000
0000
0001
0000
0000
0100
0000
0000
0001
0000
0000
0010
0000
0000
0001
0000
0000
0100
0000
0000
0001
0000
0000
3100
0000
0001
0000
0100
0000
0001
0000
0100
0000
0001
0000
,
0000
1111
1111
1111
1111
1111
1111
1111
,
1111
1111
1111
1111
1111
1111
1111
1111
,
1111
1111
1111
1111
1111
1111
1111
1111
,
1111
1111
1111
1111
1111
1111
1111
1111
,
0010
0010
0010
0010
0010
0000
0010
0010
0010
0010
0010
0000
0001
0001
0001
0000
,
0010
0010
0010
0010
0010
0000
0010
0010
0010
0010
0010
0000
0100
0100
0100
0000
,
1000
1000
1000
1000
1000
0000
1000
1000
1000
1000
1000
0000
0001
0001
0001
0000
,
0010
0010
0010
0010
0010
0000
0010
0010
0010
0010
0010
0000
0010
0010
0010
0000
,
1010
1010
1010
1010
1010
0000
0101
0101
0101
0101
0101
0000
1010
1010
1010
0000
,
1001
1001
1001
1001
1001
0000
0110
0110
0110
0110
0110
0000
1001
1001
1001
0000
,
1100
1100
1100
1100
1100
0000
0011
0011
0011
0011
0011
0000
1100
1100
1100
0000
,
0101
0101
0101
0101
0101
0000
1010
1010
1010
1010
1010
0000
0101
0101
0101
0000
,
1011
1011
1011
1011
1011
0100
1011
1011
1011
1011
1011
0100
1011
1011
1011
0010
,
1101
1101
1101
1101
1101
0010
1101
1101
1101
1101
1101
0010
1011
1011
1011
0100
,
1011
1011
1011
1011
1011
1000
0111
0111
0111
0111
0111
1000
0111
0111
0111
0001
,
1110
1110
1110
1110
1110
0100
1011
1011
1011
1011
1011
1000
0111
0111
0111
0001
,
1110
1110
1110
1110
1110
0001
1110
1110
1110
1110
1110
0001
1011
1011
1011
0100
,
1011
1011
1011
1011
1011
0100
1011
1011
1011
1011
1011
0100
1011
1011
1011
0100
,
1011
1011
1011
1011
1011
1000
0111
0111
0111
0111
0111
0010
1011
1011
1011
0100
,
1101
1101
1101
1101
1101
0100
1011
1011
1011
1010
1010
0100
1011
1011
1011
0100
,
2002
0000
0000
0000
0000
0000
0000
0000
0110
0000
0000
0000
0000
0000
0000
0000
0000
0000
0000
0000
0000
0000
0000
0000
0110
0000
0000
0000
0000
0000
0000
0000
0000
0000
0000
0000
0000
0000
0000
0000
0110
0000
0000
0000
0000
0000
0000
0000
3013
0100
0010
0100
0010
0100
0010
0100
0010
0100
0010
0100
0010
0100
0010
0100
,
1010
0001
0110
1000
0011
1000
0110
0001
0010
0100
0011
1000
0110
0001
1100
0010
,
1100
0001
0110
1000
0011
1000
0110
0001
0010
0100
0011
1000
0110
0001
1100
0001
,
0110
0001
0010
0100
0011
0100
0010
0001
0110
1000
0100
1000
0110
0001
1100
0001
,
0010
0001
0110
1000
0110
1000
0011
1000
0110
0001
1100
0001
0110
0001
1100
0001
,
0110
1000
0011
1000
0110
1000
0011
1000
0110
1000
0011
1000
0100
0010
1100
0001
,
0110
1000
0011
0100
1010
0001
0220
1000
0001
1330
0101
1010
0101
1010
0101
1010
,
0101
0010
1100
0010
1100
0010
0101
0010
1100
0001
0110
0001
1100
0001
1010
0001
,
1100
0000
0000
0000
0010
0000
0000
0000
0101
0000
0000
0000
0010
0000
0000
0000
0101
0000
0000
0000
0010
0000
0000
0000
1100
0000
0000
0000
0010
0000
0000
0000
0001
0010
0100
1000
0001
0010
0100
1000
0001
0010
0100
1000
0001
0010
0100
1000
0001
0010
0100
1000
0001
0010
0100
1000
0001
0010
0100
1000
0001
0010
0100
1000
,
0001
0010
0100
1000
0101
0010
0100
1000
0110
0001
0010
0100
1010
0001
0010
0100
,
0011
1000
0100
0010
1100
0001
0110
0001
0010
0001
0110
1000
0011
0100
1000
0010
,
0001
1000
0010
0100
0011
0100
0010
0001
0110
1000
0100
0010
1100
0001
0010
0100
,
1010
0001
0010
0100
1001
0010
0101
0010
0100
1000
0011
1000
0110
0001
1100
0010
,
0001
0010
0100
1000
0101
0010
0100
1000
0110
1000
0100
0010
1100
0001
0010
0100
,
0011
1000
0100
0010
1100
0001
0110
0001
0010
0001
0110
1000
0011
1000
0100
0001
,
0010
1000
0100
0001
1010
0100
0010
0001
0110
0001
1000
0001
1100
0001
0010
0001
,
0110
0001
1100
0010
0101
1000
0110
0001
1000
0001
1000
0001
1000
0001
1000
0001
,
0010
0000
0000
0010
0000
0000
0010
0000
0000
0010
0000
0000
0010
0000
0010
0000
0010
0000
0010
0000
0010
0000
0010
0000
0011
0000
0000
1100
0000
0000
0011
0000
0000
1100
0000
0000
0011
0000
0000
1100
0000
0000
0011
0000
0000
1000
0000
0000
,
0110
1000
0011
0100
1001
0100
1010
0100
0011
1000
0110
0001
1100
0001
0110
1000
,
0100
0010
1100
0010
0001
0010
1100
0001
0110
0001
1010
0100
0011
1000
0110
1000
,
0100
0010
1100
0010
0001
0010
1100
0001
1010
0001
0110
1000
0101
1000
0011
0100
,
1000
0100
0011
1000
0110
0001
1100
0001
1010
0100
0011
0100
0011
1000
0011
1000
,
0110
1000
0011
0100
0010
0001
1100
0010
0101
1000
0110
0001
1010
0001
0110
1000
,
0100
0010
1100
0010
0001
0010
1100
0001
1010
0001
0110
1000
0101
1000
0011
1000
,
0100
0010
1001
0010
0101
1000
0011
1000
0110
0001
1010
0100
1001
0010
1001
0010
,
0001
0010
1100
0001
1010
0100
1001
0010
0101
1000
0101
0010
0101
1000
0101
1000
,
0011
1000
0101
0010
0001
1000
0110
1000
0011
1000
0110
0001
1100
0001
0110
1000
,
0100
0010
1100
0001
0010
0001
1100
0001
0110
1000
0011
0100
1010
0001
0110
0001
,
0010
0100
0011
0100
0010
0001
1100
0001
0110
0001
1010
0001
1100
0010
1001
0010
,
0100
1000
0011
1000
0110
0001
1100
0001
0110
1000
0011
0100
0011
1000
0011
1000
,
0110
1000
0011
0100
0010
0001
1010
0100
0011
1000
0110
0001
1100
0001
0110
1000
,
0100
0010
1100
0010
0001
0010
1100
0001
1010
0001
0110
1000
0101
1000
0011
0100
,
1000
0100
0011
1000
0110
0001
1100
0001
1010
0001
0110
1000
0101
0010
1001
0100
,
0010
0100
1000
0100
1111
0100
0010
0001
0010
0001
0110
0001
1100
0001
0110
1000
,
0011
1000
0100
0010
0101
1000
0110
0001
1010
0001
1100
0001
0110
1000
0011
0100
,
1010
0100
1001
0010
1100
0001
1010
0100
0001
1000
0011
1000
0110
0001
1100
0001
,
0110
1000
0011
1000
0110
0001
1100
0001
0110
1000
0011
1000
0110
0001
1100
0001
,
0110
1000
0011
1000
0110
0001
1010
0100
0011
0100
0011
0100
0011
0100
0011
0100
,
0011
0100
0022
1000
0100
1000
0100
1000
0100
1000
0133
1000
0011
0100
0011
1000
,
0011
0100
2020
0001
3130
0001
0110
1000
0101
0010
0101
1000
0101
1000
0220
0001
,
1330
0000
0000
0000
0010
0000
0000
0000
1100
0000
0000
0000
0001
0000
0000
0000
0110
0000
0000
0000
1000
0000
0000
0000
0011
0000
0000
0000
0100
0000
0000
0000
1001
0000
0000
0000
0010
0000
0000
0000
1100
0000
0000
0000
0010
0000
0000
0000
0101
0000
0000
0000
0010
0000
0000
0000
1111
1111
1111
1111
1111
1111
1111
1111
,
1111
1111
1111
1111
1111
1111
1111
1111
1111
1111
1111
1111
1111
1111
1111
1111
1111
0000
0000
0000
0000
0000
0000
0000
0000
0000
0000
0000
0000
0000
0000
0000
1111
0000
0000
0000
0000
0000
0000
0000
0000
0000
0000
0000
0000
0000
0000
0000
0000
0000
0000
0000
0000
0000
0000
0000
0000
0000
0000
0000
0000
0000
0000
0000
;

//---------------dance-single - Copied from Copied f----------------
#NOTES:
     dance-single:
     Copied from Copied f:
     Beginner:
     14:
     1.000,1.000,1.000,0.390,1.000,1598.000,708.000,52.000,0.000,259.000:
0000
0000
0000
0000
,
0000
0001
0010
0001
0100
1000
0000
0100
,
0010
1000
0100
0001
0000
1000
0100
0001
,
0000
1000
0100
1000
0010
0001
0000
0100
,
0010
0001
0010
0100
0000
0010
0100
1000
,
0100
0010
0101
0010
1001
0010
1100
0010
1001
0100
1010
0100
0010
0001
1100
0010
,
0101
1000
0110
0001
1010
0100
1001
0100
0010
0001
1100
0001
0110
1000
0011
0100
,
1000
0100
1001
0100
1010
0100
0011
0100
1010
0100
1001
0100
0010
0001
0110
1000
,
0011
0100
1010
0001
0110
0100
0102
0100
0100
0100
0100
0100
0100
0100
0103
0100
,
0100
0100
0100
1100
0011
0010
0010
0010
1001
1000
1000
1000
0110
0010
0010
0010
,
1010
1000
1000
1000
0110
0100
0110
0100
0010
0010
1010
0010
0011
0001
0001
0001
,
0010
0010
0010
0010
1001
1000
1000
1000
0110
0100
0100
0100
0110
0010
0010
0010
,
0011
0001
0001
0001
1001
1000
1100
1000
1000
1000
1010
1000
1010
1000
1100
1000
,
1000
1000
1000
1000
1001
1000
1000
1000
1010
1000
1000
1000
0110
0001
1000
0010
,
0101
0010
1000
0001
0110
1000
0011
0100
0010
0001
1010
0001
0110
1000
0100
0010
,
0001
0010
0100
0010
1001
0100
0010
0001
1010
0001
0010
0100
1010
0100
0010
0001
,
1010
0000
0000
0000
0001
0000
0000
0000
0010
0000
0000
0000
0100
0000
0000
0000
0011
0000
0000
0000
0100
0000
0000
0000
1010
0000
0000
0000
0001
0000
0000
0000
0010
0000
0000
0000
0100
0000
0000
0000
1000
0000
0000
0000
0100
0000
0000
0000
1111
1111
1111
1111
1111
1111
1111
1111
1111
1111
1111
1111
1111
1111
1111
1111
,
1111
0001
1010
0100
1010
0001
1010
0100
0011
0100
1010
0001
0010
0001
1100
0010
,
0101
0010
1100
0001
0110
1000
0011
0100
0010
0001
1100
0001
0010
0100
1010
0100
,
0011
0100
1010
0001
0110
1000
0101
1000
0100
0010
1001
0010
0001
0010
1100
0001
,
1010
0001
0110
1000
0101
1000
0011
0100
1000
0100
0011
1000
0110
0001
1100
0001
,
0110
0100
1011
0100
1011
0100
1011
0100
1010
0100
1011
0100
0010
0100
1010
0100
,
0011
1000
0110
0001
1100
0001
0110
0001
0010
0100
1010
0001
0010
0100
1010
0001
,
0110
0001
1010
0100
0011
1000
0110
1000
0100
0010
0101
1000
0110
0001
1010
0001
,
1100
0001
0110
1000
0011
0100
1010
0100
0010
0001
1100
0001
0110
1000
0011
0000
,
1001
0100
1010
0100
1001
0100
1010
0001
1100
0001
1010
0100
0010
0001
1010
0100
,
0011
1000
0110
0001
1100
0001
0110
1000
0100
0010
1100
0010
0100
1000
0011
0100
,
1010
0001
0110
1000
0101
1000
0110
0001
0010
0100
1010
0001
0010
0100
1001
0010
,
1100
0001
0110
1000
0101
1000
0110
1000
0100
0010
1100
0001
0110
1000
0011
0100
,
1001
0100
0011
1000
0011
0100
0011
1000
0110
1000
0011
0100
0010
0001
1010
0100
,
0011
1000
0110
0001
1100
0010
1001
0010
0100
1000
0110
0001
0010
0001
1100
0001
,
1010
0001
0110
1000
0101
1000
0011
1000
0100
0010
0101
1000
0110
0001
1010
0001
,
1100
0001
0110
1000
0011
0100
1010
0001
1000
0001
1000
0001
1010
0001
1000
0010
,
2001
0100
0010
3201
1000
0321
0100
1032
,
0100
0213
1302
0203
2310
0001
0010
0100
,
3012
0100
1203
0321
0100
1032
0100
0213
,
1000
0312
1023
0231
1000
0321
1032
0123
,
1030
0102
2013
3210
0001
0321
1000
0132
,
1000
0123
1230
0321
1000
0001
1230
0001
,
2310
0001
3210
1302
0010
1203
1320
1032
,
2103
0010
3201
1320
0100
1032
0123
0231
,
2310
0000
0000
0000
0000
0000
0000
0000
0000
0000
0000
0000
0001
0000
0000
0000
0000
0000
0000
0000
0000
0000
0000
0000
0100
0000
0000
0000
0000
0000
0000
0000
0000
0000
0000
0000
0001
0000
0000
0000
0000
0000
0000
0000
0000
0000
0000
0000
0010
0000
0000
0000
0000
0000
0000
0000
0000
0000
0000
0000
0001
0000
0000
0000
0000
0000
0000
0000
0000
0000
0000
0000
0100
0000
0000
0000
0000
0000
0000
0000
0000
0000
0000
0000
0001
0000
0000
0000
0000
0000
0000
0000
0000
0000
0000
0000
0010
0000
0000
0000
0000
0000
0000
0000
0000
0000
0000
0000
0001
0000
0000
0000
0000
0000
0000
0000
0000
0000
0000
0000
0100
0000
0000
0000
0000
0000
0000
0000
0000
0000
0000
0000
0001
0000
0000
0000
0000
0000
0000
0000
0000
0000
0000
0000
3101
0000
0000
0110
1001
0000
0100
0000
0001
0110
0000
0000
1101
0000
0000
0010
0101
0000
0100
0000
1001
0110
0000
0000
0101
0000
0000
0110
1001
0000
0100
0000
0101
0110
0000
0000
1101
0000
0000
0110
0001
0000
0100
0000
1000
0110
0000
0000
,
0000
1111
1111
1111
1111
1111
1111
1111
,
1111
1111
1111
1111
1111
1111
1111
1111
,
1111
1111
1111
1111
1111
1111
1111
1111
,
1111
1111
1111
1111
1111
1111
1111
1111
,
0010
0010
0010
0010
0010
0010
0010
0010
0010
0000
0000
0000
0010
0010
0010
0010
0010
0010
0010
0010
0010
0000
0000
0000
0001
0001
0001
0001
0001
0000
0000
0000
,
0010
0010
0010
0010
0010
0010
0010
0010
0010
0000
0000
0000
0010
0010
0010
0010
0010
0010
0010
0010
0010
0000
0000
0000
0100
0100
0100
0100
0100
0000
0000
0000
,
1000
1000
1000
1000
1000
1000
1000
1000
1000
0000
0000
0000
1000
1000
1000
1000
1000
1000
1000
1000
1000
0000
0000
0000
0001
0001
0001
0001
0001
0000
0000
0000
,
0010
0010
0010
0010
0010
0010
0010
0010
0010
0000
0000
0000
0010
0010
0010
0010
0010
0010
0010
0010
0010
0000
0000
0000
0010
0010
0010
0010
0010
0000
0000
0000
,
1010
1010
1010
1010
1010
0000
0101
0101
0101
0101
0101
0000
1010
1010
1010
0000
,
1001
1001
1001
1001
1001
0000
0110
0110
0110
0110
0110
0000
1001
1001
1001
0000
,
1100
1100
1100
1100
1100
0000
0011
0011
0011
0011
0011
0000
1100
1100
1100
0000
,
0101
0101
0101
0101
0101
0000
1010
1010
1010
1010
1010
0000
0101
0101
0101
0000
,
1011
1011
1011
1011
1011
0100
1011
1011
1011
1011
1011
0100
1011
1011
1011
0010
,
1101
1101
1101
1101
1101
0010
1101
1101
1101
1101
1101
0010
1011
1011
1011
0100
,
1011
1011
1011
1011
1011
1000
0111
0111
0111
0111
0111
1000
0111
0111
0111
0001
,
1110
1110
1110
1110
1110
0100
1011
1011
1011
1011
1011
1000
0111
0111
0111
0001
,
1111
1111
1111
1111
1111
0001
1111
1111
1111
1111
1111
0001
1111
1111
1111
0100
,
1111
1111
1111
1111
1111
0100
1111
1111
1111
1111
1111
0100
1111
1111
1111
0100
,
1111
1111
1111
1111
1111
1000
1111
1111
1111
1111
1111
0010
1111
1111
1111
0100
,
1111
1111
1111
1111
1111
0100
1111
1111
1111
1111
1111
0100
1111
1111
1111
0100
,
2002
0000
0000
0000
0000
0000
0000
0000
0110
0000
0000
0000
0000
0000
0000
0000
0000
0000
0000
0000
0000
0000
0000
0000
0110
0000
0000
0000
0000
0000
0000
0000
0000
0000
0000
0000
0000
0000
0000
0000
0110
0000
0000
0000
0000
0000
0000
0000
3013
1111
1111
1111
1111
1110
1111
1111
1111
1111
1111
1111
1111
1111
1111
1111
,
1111
0001
0110
1000
0011
1000
0110
0001
0010
0100
0011
1000
0110
0001
1100
0010
,
1100
0001
0110
1000
0011
1000
0110
0001
0010
0100
0011
1000
0110
0001
1100
0001
,
0110
0001
0010
0100
0011
0100
0010
0001
0110
1000
0100
1000
0110
0001
1100
0001
,
0010
0001
0110
1000
0110
1000
0011
1000
0110
0001
1100
0001
0110
0001
1100
0001
,
0110
1000
0011
1000
0110
1000
0011
1000
0110
1000
0011
1000
0100
0010
1100
0001
,
0110
1000
0011
0100
1010
0001
0220
1000
0001
1330
0101
1010
0101
1010
0101
1010
,
0101
0010
1100
0010
1100
0010
0101
0010
1100
0001
0110
0001
1100
0001
1010
0001
,
1100
0000
0000
0000
0010
0000
0000
0000
0101
0000
0000
0000
0010
0000
0000
0000
0101
0000
0000
0000
0010
0000
0000
0000
1100
0000
0000
0000
0010
0000
0000
0000
0001
0010
0100
1000
0001
0010
0100
1000
0001
0010
0100
1000
0001
0010
0100
1000
0001
0010
0100
1000
0001
0010
0100
1000
0001
0010
0100
1000
0001
0010
0100
1000
,
0001
0010
0100
1000
0101
0010
0100
1000
0110
0001
0010
0100
1010
0001
0010
0100
,
0011
1000
0100
0010
1100
0001
0110
0001
0010
0001
0110
1000
0011
0100
1000
0010
,
0001
1000
0010
0100
0011
0100
0010
0001
0110
1000
0100
0010
1100
0001
0010
0100
,
1010
0001
0010
0100
1001
0010
0101
0010
0100
1000
0011
1000
0110
0001
1100
0010
,
0001
0010
0100
1000
0101
0010
0100
1000
0110
1000
0100
0010
1100
0001
0010
0100
,
0011
1000
0100
0010
1100
0001
0110
0001
0010
0001
0110
1000
0011
1000
0100
0001
,
0010
1000
0100
0001
1010
0100
0010
0001
0110
0001
1000
0001
1100
0001
0010
0001
,
0110
0001
1100
0010
0101
1000
0110
0001
1000
0001
1000
0001
1000
0001
1000
0001
,
0010
0000
0000
0010
0000
0000
0010
0000
0000
0010
0000
0000
0010
0000
0010
0000
0010
0000
0010
0000
0010
0000
0010
0000
0011
0000
0000
1100
0000
0000
0011
0000
0000
1100
0000
0000
0011
0000
0000
1100
0000
0000
0011
0000
0000
1000
0000
0000
,
0110
1000
0011
0100
1001
0100
1010
0100
0011
1000
0110
0001
1100
0001
0110
1000
,
0100
0010
1100
0010
0001
0010
1100
0001
0110
0001
1010
0100
0011
1000
0110
1000
,
0100
0010
1100
0010
0001
0010
1100
0001
1010
0001
0110
1000
0101
1000
0011
0100
,
1000
0100
0011
1000
0110
0001
1100
0001
1010
0100
0011
0100
0011
1000
0011
1000
,
0110
1000
0011
0100
0010
0001
1100
0010
0101
1000
0110
0001
1010
0001
0110
1000
,
0100
0010
1100
0010
0001
0010
1100
0001
1010
0001
0110
1000
0101
1000
0011
1000
,
0100
0010
1001
0010
0101
1000
0011
1000
0110
0001
1010
0100
1001
0010
1001
0010
,
0001
0010
1100
0001
1010
0100
1001
0010
0101
1000
0101
0010
0101
1000
0101
1000
,
0011
1000
0101
0010
0001
1000
0110
1000
0011
1000
0110
0001
1100
0001
0110
1000
,
0100
0010
1100
0001
0010
0001
1100
0001
0110
1000
0011
0100
1010
0001
0110
0001
,
0010
0100
0011
0100
0010
0001
1100
0001
0110
0001
1010
0001
1100
0010
1001
0010
,
0100
1000
0011
1000
0110
0001
1100
0001
0110
1000
0011
0100
0011
1000
0011
1000
,
0110
1000
0011
0100
0010
0001
1010
0100
0011
1000
0110
0001
1100
0001
0110
1000
,
0100
0010
1100
0010
0001
0010
1100
0001
1010
0001
0110
1000
0101
1000
0011
0100
,
1000
0100
0011
1000
0110
0001
1100
0001
1010
0001
0110
1000
0101
0010
1001
0100
,
0010
0100
1000
0100
1111
0100
0010
0001
0010
0001
0110
0001
1100
0001
0110
1000
,
0011
1000
0100
0010
0101
1000
0110
0001
1010
0001
1100
0001
0110
1000
0011
0100
,
1010
0100
1001
0010
1100
0001
1010
0100
0001
1000
0011
1000
0110
0001
1100
0001
,
0110
1000
0011
1000
0110
0001
1100
0001
0110
1000
0011
1000
0110
0001
1100
0001
,
0110
1000
0011
1000
0110
0001
1010
0100
0011
0100
0011
0100
0011
0100
0011
0100
,
0011
0100
0022
1000
0100
1000
0100
1000
0100
1000
0133
1000
0011
0100
0011
1000
,
0011
0100
2020
0001
3130
0001
0110
1000
0101
0010
0101
1000
0101
1000
0220
0001
,
1330
0000
0000
0000
0010
0000
0000
0000
1100
0000
0000
0000
0001
0000
0000
0000
0110
0000
0000
0000
1000
0000
0000
0000
0011
0000
0000
0000
0100
0000
0000
0000
1001
0000
0000
0000
0010
0000
0000
0000
1100
0000
0000
0000
0010
0000
0000
0000
0101
0000
0000
0000
0010
0000
0000
0000
1111
1111
1111
1111
1111
1111
1111
1111
,
1111
1111
1111
1111
1111
1111
1111
1111
1111
1111
1111
1111
1111
1111
1111
1111
1111
0000
0000
0000
0000
0000
0000
0000
0000
0000
0000
0000
0000
0000
0000
0000
1111
0000
0000
0000
0000
0000
0000
0000
0000
0000
0000
0000
0000
0000
0000
0000
0000
0000
0000
0000
0000
0000
0000
0000
0000
0000
0000
0000
0000
0000
0000
0000
;
